Grateful Dead
Dead To The Core Project
Noteworthy Comes A Time's (A Collection)

This is a collection of noteworthy versions of Comes A Time played by
the Grateful Dead. It is based on a list put together by Eric Wybenga
and published in his book _Dead To The Core: An Almanac of the
Grateful Dead_.

The track names are self-explanatory: they list the date of the
performance, the SHNID of the source, and shortened names of the songs
included in the track. When it was easy to tease Comes A Time apart
from its neighbors, I did so; when it seemed inextricably intertwined
with other songs, I included longer jams in the compilation. I joined
jams with "shntool join", and then I retracked and added simple fades
using Wavelab. I fixed up the resulting tracks using shntool, and then
I compressed the files using "flac --best". I used shntool version
3.0.2, flac version 1.1.3, and Wavelab version 6.1.

First shared via bitTorrent at bt.eTree.org, April 2009, by SteveSw.

Contents:
gd71-10-19.03301.ComesATime.flac
gd71-10-30.26608.ComesATime.flac
gd72-07-18.32878.DarkStar-ComesATime.flac
gd72-07-26.87034.DarkStar-ComesATime.flac
gd77-05-04.91970.Playin-ComesATime-Playin.flac
gd77-05-09.08304.ComesATime.flac
gd85-06-24.25315.Space-ComesATime-OtherOne-Cryptical-WharfRat-Around-GoodLovin.flac
gd85-09-07.33954.MrFantasy-HeyJude-MrFantasy-Truckin-ComesATime-Lovelight.flac
gd85-11-01.00379.HesGone-Spoonful-ComesATime-LostSailor.flac
gd90-12-27.08193.Estimated-ComesATime.flac
gd91-06-25.26350.Space-ComesATime-GoinDownTheRoad-GoodLovin.flac


SHNTOOL LEN
length expanded size cdr WAVE problems fmt ratio filename
7:25.70 78662684 B --- -- ---xx flac 0.5483 gd71-10-19.03301.ComesATime.flac
8:12.53 86913500 B --- -- ---xx flac 0.4727 gd71-10-30.26608.ComesATime.flac
33:59.65 359832524 B --- -- ---xx flac 0.5578 gd72-07-18.32878.DarkStar-ComesATime.flac
37:49.72 400420988 B --- -- ---xx flac 0.5197 gd72-07-26.87034.DarkStar-ComesATime.flac
36:48.00 389491244 B --- -- ---xx flac 0.4614 gd77-05-04.91970.Playin-ComesATime-Playin.flac
11:49.22 125119388 B --- -- ---xx flac 0.4099 gd77-05-09.08304.ComesATime.flac
40:35.34 429614012 B --- -- ---xx flac 0.6740 gd85-06-24.25315.Space-ComesATime-OtherOne-Cryptical-WharfRat-Around-GoodLovin.flac
24:42.47 261535388 B --- -- ---xx flac 0.5836 gd85-09-07.33954.MrFantasy-HeyJude-MrFantasy-Truckin-ComesATime-Lovelight.flac
31:30.46 333504236 B --- -- ---xx flac 0.5583 gd85-11-01.00379.HesGone-Spoonful-ComesATime-LostSailor.flac
22:26.53 237559100 B --- -- ---xx flac 0.5126 gd90-12-27.08193.Estimated-ComesATime.flac
34:08.57 361401308 B --- -- ---xx flac 0.5071 gd91-06-25.26350.Space-ComesATime-GoinDownTheRoad-GoodLovin.flac
289:29.69 3064054372 B 0.5409 (11 files)