Larry Keel's Mountain Music Family Circus
12/31/2008
The Grey Eagle
Asheville, NC

source: post show matrix
aud source: Neumann ak40 > lc3 > km100 > xlr's (silvers) > Lunatec V3 > Edirol R-44 @ 24/48
location: fob,dfc,din clamped to "ceiling" @ about 9' high
sbd source: SBD > 1/4 inch stereo outs > Edirol R-44 @ 24/48
transfer: SDHC card > PC > wavelab 5.01b > cd wave > traders little helper (flac level 8)

all editing (matrix, gain raised, resampled w/ resampler 192, dither w/ iZotope Ozone 3) done in wavelab 5.01b

*16bit/44.1khz fileset*

recorded and transferred by Gordon Wilson

Set One/Disc One:

David Via

01. Intro
02. You're in Heaven Louise
03. Next To You
04. Never Be Home
05. Baseball, Hot Dogs, Apple Pie and Chevrolet
06. Danville Train
07. Recipe For Disaster
08. Didn't Speak to You
09. Don't You Want to
10. Is That where I'm Bound
11. What You Are %
12. Moonshine In The Moonlight %
13. Worried About My Soul %

% w/ Jason Krekel


Set Two/Disc Two:

Mad Tea Party

01. Intro/Tuning
02. Intro Jam
03. Found a Reason
04. Stay Home and Watch TV
05. Rock n Roll is a Dream
06. Flip, Flop and Fly
07. Cold Outside
08. Move You
09. Blues Slip In
10. Scrambliní
11. All I Want is to Rock
12. Big Noise from Krekel
13. Come on Baby Lets Rock n Roll
14. ? > Boogie Chillin $
15. Abracadabra #

$ w/ Jay ?
# w/ Jenny & Larry Keel


Set Three/Disc Three:

Larry Keel & Natural Bridge

01. Intro/Tuning
02. Soundcheck
03. Watermelon Man
04. Crocodile Man
05. Southbound
06. Diamond Break
07. Town & Country
08. Mother Nature's Son
09. Take The Time
10. Blackjack ^

^ w/ Big Daddy


Set Four/Disc Four:

Big Daddy & Friends

01. Intro/Tuning
02. Can't You Hear Jerusalem Moan
03. Ax Sweet Mama
04. ??
05. Memphis Girls
06. Stone Pillow Bed
07. Critters
08. They Love Each Other
09. I Got a Woman
10. Licking Stick @
11. New Years Countdown $$
12. Auld Lang Syne $$
13. Rainbow Roller Coaster ^^

@ w/ Larry, Jenny & Jason
$$ w/ everyone
^^ w/ Larry Keel & Natural Bridge


Set Five/Disc Five:

Larry Keel & Natural Bridge *

01. Intro/Tuning
02. Buffalo Gals
03. November
04. Instrumental
05. Rock Of Ages **
06. Mountain Song **
07. Raleigh and Spencer **
08. One More Dollar
09. Groundhog
10. Whatever Gets You Thru the Night
11. Shortenin' Bread/Hell Broke Loose In Asheville

encore:
12. Banter
13. ??
14. Instrumental

* most of set w/ Big Daddy & various guest (too many to list)
** w/ David Via on vocals

many of the track names are just a guess. please help if you can.

I used the term "set" pretty loosely here. there was no more than 30 secs to a min between any of the acts.

there are brief moments throughout where the sbd loss signal due to effects by the house sound man. the aud source fills in these gaps.


shntool 3.0.4
Copyright (C) 2000-2007 Jason Jordan

length expanded size cdr WAVE problems fmt ratio filename
0:48.59 8606012 B --- -- ---xx flac 0.4113 mmfc2008-12-31s1t01.flac
2:30.66 26615276 B --- -- ---xx flac 0.4354 mmfc2008-12-31s1t02.flac
2:25.25 25636844 B --- -- ---xx flac 0.4892 mmfc2008-12-31s1t03.flac
4:02.29 42757052 B --- -- ---xx flac 0.4523 mmfc2008-12-31s1t04.flac
2:17.15 24202124 B --- -- ---xx flac 0.4871 mmfc2008-12-31s1t05.flac
5:19.74 56445692 B --- -- ---xx flac 0.4620 mmfc2008-12-31s1t06.flac
3:07.51 33106796 B --- -- ---xx flac 0.4454 mmfc2008-12-31s1t07.flac
2:50.59 30126812 B --- -- ---xx flac 0.4654 mmfc2008-12-31s1t08.flac
5:49.72 61732988 B --- -- ---xx flac 0.4775 mmfc2008-12-31s1t09.flac
3:06.70 32975084 B --- -- ---xx flac 0.4656 mmfc2008-12-31s1t10.flac
4:14.13 44836220 B --- -- ---xx flac 0.5014 mmfc2008-12-31s1t11.flac
5:32.43 58665980 B --- -- ---xx flac 0.5271 mmfc2008-12-31s1t12.flac
3:05.60 32775164 B --- -- ---xx flac 0.4840 mmfc2008-12-31s1t13.flac
1:32.22 16280588 B --- -- ---xx flac 0.4008 mmfc2008-12-31s2t01.flac
0:36.53 6475100 B --- -- ---xx flac 0.4703 mmfc2008-12-31s2t02.flac
1:58.23 20869340 B --- -- ---xx flac 0.5234 mmfc2008-12-31s2t03.flac
2:14.06 23651756 B --- -- ---xx flac 0.5222 mmfc2008-12-31s2t04.flac
3:42.19 39205532 B --- -- ---xx flac 0.4868 mmfc2008-12-31s2t05.flac
4:40.21 49441436 B --- -- ---xx flac 0.4951 mmfc2008-12-31s2t06.flac
2:30.44 26563532 B --- -- ---xx flac 0.5027 mmfc2008-12-31s2t07.flac
5:29.36 58120316 B --- -- ---xx flac 0.4690 mmfc2008-12-31s2t08.flac
2:05.00 22050044 B --- -- ---xx flac 0.5117 mmfc2008-12-31s2t09.flac
3:07.29 33055052 B --- -- ---xx flac 0.5178 mmfc2008-12-31s2t10.flac
1:46.48 18811340 B --- -- ---xx flac 0.5144 mmfc2008-12-31s2t11.flac
2:49.64 29962172 B --- -- ---xx flac 0.4987 mmfc2008-12-31s2t12.flac
2:54.07 30710108 B --- -- ---xx flac 0.4767 mmfc2008-12-31s2t13.flac
6:44.37 71352668 B --- -- ---xx flac 0.5145 mmfc2008-12-31s2t14.flac
5:13.61 55356716 B --- -- ---xx flac 0.4989 mmfc2008-12-31s2t15.flac
2:45.58 29242460 B --- -- ---xx flac 0.4371 mmfc2008-12-31s3t01.flac
3:44.41 39610076 B --- -- ---xx flac 0.5017 mmfc2008-12-31s3t02.flac
5:52.24 62149292 B --- -- ---xx flac 0.4882 mmfc2008-12-31s3t03.flac
5:44.26 60742796 B --- -- ---xx flac 0.4952 mmfc2008-12-31s3t04.flac
4:50.25 51214844 B --- -- ---xx flac 0.5360 mmfc2008-12-31s3t05.flac
4:47.21 50676236 B --- -- ---xx flac 0.4815 mmfc2008-12-31s3t06.flac
7:03.30 74687804 B --- -- ---xx flac 0.4980 mmfc2008-12-31s3t07.flac
2:53.40 30611324 B --- -- ---xx flac 0.4415 mmfc2008-12-31s3t08.flac
5:22.00 56800844 B --- -- ---xx flac 0.5055 mmfc2008-12-31s3t09.flac
4:05.68 43377980 B --- -- ---xx flac 0.5203 mmfc2008-12-31s3t10.flac
1:45.45 18627884 B --- -- ---xx flac 0.4044 mmfc2008-12-31s4t01.flac
4:57.32 52466108 B --- -- ---xx flac 0.5002 mmfc2008-12-31s4t02.flac
5:34.44 59021132 B --- -- ---xx flac 0.4793 mmfc2008-12-31s4t03.flac
5:02.14 53305772 B --- -- ---xx flac 0.4622 mmfc2008-12-31s4t04.flac
6:52.32 72752108 B --- -- ---xx flac 0.4764 mmfc2008-12-31s4t05.flac
7:03.51 74737196 B --- -- ---xx flac 0.4712 mmfc2008-12-31s4t06.flac
5:50.44 61843532 B --- -- ---xx flac 0.4599 mmfc2008-12-31s4t07.flac
6:03.19 64077932 B --- -- ---xx flac 0.4812 mmfc2008-12-31s4t08.flac
4:13.00 44629244 B --- -- ---xx flac 0.5028 mmfc2008-12-31s4t09.flac
9:27.42 100117628 B --- -- ---xx flac 0.4773 mmfc2008-12-31s4t10.flac
1:27.59 15485612 B --- -- ---xx flac 0.5420 mmfc2008-12-31s4t11.flac
4:28.52 47397548 B --- -- ---xx flac 0.4971 mmfc2008-12-31s4t12.flac
8:29.47 89898188 B --- -- ---xx flac 0.4916 mmfc2008-12-31s4t13.flac
0:45.11 7963916 B --- -- ---xx flac 0.4587 mmfc2008-12-31s5t01.flac
6:04.63 64357820 B --- -- ---xx flac 0.5128 mmfc2008-12-31s5t02.flac
5:53.03 62276300 B --- -- ---xx flac 0.5222 mmfc2008-12-31s5t03.flac
13:13.39 139976972 B --- -- ---xx flac 0.5023 mmfc2008-12-31s5t04.flac
3:39.64 38782172 B --- -- ---xx flac 0.4956 mmfc2008-12-31s5t05.flac
6:56.52 73504748 B --- -- ---xx flac 0.5133 mmfc2008-12-31s5t06.flac
5:31.22 58440188 B --- -- ---xx flac 0.5116 mmfc2008-12-31s5t07.flac
9:38.25 102018044 B --- -- ---xx flac 0.4627 mmfc2008-12-31s5t08.flac
4:41.41 49664876 B --- -- ---xx flac 0.5302 mmfc2008-12-31s5t09.flac
6:20.15 67067324 B --- -- ---xx flac 0.5180 mmfc2008-12-31s5t10.flac
8:46.64 92936972 B --- -- ---xx flac 0.5361 mmfc2008-12-31s5t11.flac
1:13.74 13051292 B --- -- ---xx flac 0.4463 mmfc2008-12-31s5t12.flac
4:28.16 47312876 B --- -- ---xx flac 0.4488 mmfc2008-12-31s5t13.flac
2:09.32 22830908 B --- -- ---xx flac 0.5260 mmfc2008-12-31s5t14.flac
290:26.41 3074045692 B 0.4910 (65 files)