Maceo Parker
Great American Music Hall
San Francisco, CA
March 4, 1995
Early set

-- From the Teddy Ballgame archive --

This is a 16 bit 48khz file set

Performers
Maceo Parker - alto sax & vocals
Fred Wesley - trombone & vocals
Bruno Speight - guitar
William Boulware - keys
Jerry Preston - bass
Jamal Thomas - drums

Source: SBD > DAT
Transfer: PCM-R500 > digi coax > Edirol R-44 > USB
Lineage: DAT 16/48 > TLH > FLACT
Tape labelled "1:1 safety copy"
Thanks to Mike F and Bill R

Notes:
1. Right channel had dropouts and diginoise. Repaired by copying left channel.
2. Any help with performance details or song names appreciated

Track List:

Early Set

01. s1t01 - intro 03:07.356
02. s1t02 03:23.023
03. s1t03 - Make It Funky 09:21.924
04. s1t04 - Pass The Peas 09:57.374
05. s1t05 - Ray Charles tune 07:01.353
06. s1t06 - Shake Everything You Got 20:32.580
07. s1t07 - Make My Funky Be Funk 02:53.133
08. s1t08 - thank yous -> We Love You 06:09.154
09. s1t09 - Can't You Give Us Some More > 05:04.673
10. s1t10 - I Need Some Money > Wonderful Woman > I Need Some Money 00:00.177
11. s1t11 - Lets Get It On 11:12.317
12. s1t12 - James Brown Medley 08:39.544
13. s1t13 - band intros 00:45.052
14. s1t14 - Make It Funky outro 03:21.868
15. s1t15 - Got To Get Ya 06:54.133
16. s1t16 - Soul Power 05:16.050

Total: 103:39.712




shntool:

length expanded size cdr WAVE problems fmt ratio filename
3:07.356 35972448 B cxx -- ---xx flac 0.4822 s1t01 - intro.flac
3:23.023 38980548 B cxx -- ---xx flac 0.5097 s1t02.flac
9:21.924 107889532 B cxx -- ---xx flac 0.4948 s1t03 - Make It Funky.flac
9:57.374 114695876 B cxx -- ---xx flac 0.4457 s1t04 - Pass The Peas.flac
7:01.353 80899832 B cxx -- ---xx flac 0.3958 s1t05 - Ray Charles tune.flac
20:32.580 236655496 B cxx -- ---xx flac 0.4957 s1t06 - Shake Everything You Got.flac
2:53.133 33241596 B cxx -- ---xx flac 0.4410 s1t07 - Make My Funky Be Funk.flac
6:09.154 70877548 B cxx -- ---xx flac 0.4121 s1t08 - thank yous -> We Love You.flac
5:04.673 58497208 B cxx -- ---xx flac 0.5163 s1t09 - Can't You Give Us Some More >.flac
0:00.177 33944 B cxx -- ---xx flac 0.5199 s1t10 - I Need Some Money > Wonderful Woman > I Need Some Money.flac
11:12.317 129084836 B cxx -- ---xx flac 0.4243 s1t11 - Lets Get It On.flac
8:39.544 99752424 B cxx -- ---xx flac 0.5593 s1t12 - James Brown Medley.flac
0:45.052 8650056 B cxx -- ---xx flac 0.5165 s1t13 - band intros.flac
3:21.868 38758748 B cxx -- ---xx flac 0.5272 s1t14 - Make It Funky outro.flac
6:54.133 79513616 B cxx -- ---xx flac 0.5114 s1t15 - Got To Get Ya.flac
5:16.050 60681624 B cxx -- ---xx flac 0.5486 s1t16 - Soul Power.flac
103:39.712 1194185332 B 0.4811 (16 files)


fingerprints:

s1t01 - intro.flac:fdbe0e4416b5624fd6b93c3f75ef006e
s1t02.flac:489f3f62efcaa638d231e8f4896ecad8
s1t03 - Make It Funky.flac:da2d48adbce63bc84a6faa542cb14f89
s1t04 - Pass The Peas.flac:11d0b6c6d34a7bcc0cb7caa99e291961
s1t05 - Ray Charles tune.flac:602ecb93acb1766ede99cb3c5c34da62
s1t06 - Shake Everything You Got.flac:2fdfde41db060bd00ce6dd6b57e19eed
s1t07 - Make My Funky Be Funk.flac:5ead58aa9f6f0717404e980ba9240e34
s1t08 - thank yous -> We Love You.flac:4b4b02a4f48f542226ad76d6f2068d30
s1t09 - Can't You Give Us Some More >.flac:2f63777496194a4cc8bb1ad0d9841acf
s1t10 - I Need Some Money > Wonderful Woman > I Need Some Money.flac:4221c3bcc41cee5622c57d9580f2311f
s1t11 - Lets Get It On.flac:6ecbbb570b985cbc8172703f839f8ae3
s1t12 - James Brown Medley.flac:1934662706334a76a3fc6d87a899b554
s1t13 - band intros.flac:74a15e75b9736f83c792f42afba8c822
s1t14 - Make It Funky outro.flac:06b9290a5549ef6318c81d36a37b7ec7
s1t15 - Got To Get Ya.flac:5fc413c772d79cc00b08ca6042c4687e
s1t16 - Soul Power.flac:d3593bbe262c46a10b1ff98add944bd4