Railroad Earth
2010-04-24
Variety Playhouse, Atlanta, Ga.

Source: AKG c426b (cardioid, xy, 80, fob, dfc)>V3 (24/96)> SD722
Transfer: firewire>wavelab 6.10 [iZotope Ozone 4 Crystal Resampler (dither & downsample)]>CDWav (splits)>FLACFrontend
taped and transferred by John Barren
A Team Dirty South Recording

Set 1
01. tuning
02. Where Songs Begin
03. Just So You Know
04. Smile Like a Buddha
05. Walk Beside Me
06. Stillwater Getaway
07. Bird in a House
08. Bringin' My Baby Back Home

Set 2
01.The Hunting Song
02. Carrying Coal to Newcastle
03. Happy Song
04. Old Man and the Land
05. For Love
06. ?get out of town before the sun goes down?
07. Been Down This Road
08. Dandelion Wine
09. Hard Livin'
10. crowd
encore
11. Lovin' You
12. Little Rabbit

Flac Fingerprint
rre2010-04-24s1t01.flac:a79a83c26e6ab04a5b56c506ef01aa76
rre2010-04-24s1t02.flac:cc6c1f785d7f00fa812dbca80b43c9c0
rre2010-04-24s1t03.flac:559b40cd88ac07f04f49b007b728c232
rre2010-04-24s1t04.flac:98b71562621db1970bfc9777db119710
rre2010-04-24s1t05.flac:092e121fa16bc8ede72ba8c959a5ffc9
rre2010-04-24s1t06.flac:2dee04ac8ea5016cd4d61761a9eda5c2
rre2010-04-24s1t07.flac:8be1eef56e42e90669d0a2856a2f38b1
rre2010-04-24s1t08.flac:d883092f73819b9652556ae4c6ed468c
rre2010-04-24s2t01.flac:16ac8f2f1683839f6e8b8baf5378cffd
rre2010-04-24s2t02.flac:a0bd3fd11db90dc763bb07b1e6eae7e2
rre2010-04-24s2t03.flac:95c563d6254231ff32a551a0329c1dd7
rre2010-04-24s2t04.flac:53ba0d6603a555f9648c3971da69a94e
rre2010-04-24s2t05.flac:4b21957ad1e2cf63f476745a4c583241
rre2010-04-24s2t06.flac:f3558a8dcf4aa4e579f9adca2393a5c1
rre2010-04-24s2t07.flac:2547cda388854735135523add7429722
rre2010-04-24s2t08.flac:a4f5f67e6c1db5973dd3556b078fefd7
rre2010-04-24s2t09.flac:59cc321864c6d0512421bd2c3d9a5af3
rre2010-04-24s2t10.flac:ee169c4c33a335f8e4caacd0be9b836e
rre2010-04-24s2t11.flac:07ff8fec0bfc2d19af155a31dca4bc87
rre2010-04-24s2t12.flac:a404c8bbeeb6fb901cb7da1b7d1a8190

Shntool
length expanded size cdr WAVE problems fmt ratio filename
0:56.42 9977228 B --- -- ---xx flac 0.3613 rre2010-04-24s1t01.flac
8:11.45 86718284 B --- -- ---xx flac 0.5020 rre2010-04-24s1t02.flac
8:23.19 88773932 B --- -- ---xx flac 0.5137 rre2010-04-24s1t03.flac
15:09.67 160505228 B --- -- ---xx flac 0.5510 rre2010-04-24s1t04.flac
5:42.61 60472316 B --- -- ---xx flac 0.5328 rre2010-04-24s1t05.flac
9:10.50 97137644 B --- -- ---xx flac 0.5352 rre2010-04-24s1t06.flac
8:01.12 84876668 B --- -- ---xx flac 0.5144 rre2010-04-24s1t07.flac
5:42.12 60357068 B --- -- ---xx flac 0.5456 rre2010-04-24s1t08.flac
12:36.11 133384316 B --- -- ---xx flac 0.5247 rre2010-04-24s2t01.flac
7:50.64 83058572 B --- -- ---xx flac 0.5121 rre2010-04-24s2t02.flac
4:01.04 42521852 B --- -- ---xx flac 0.5350 rre2010-04-24s2t03.flac
7:22.39 78060572 B --- -- ---xx flac 0.5080 rre2010-04-24s2t04.flac
8:28.54 89738252 B --- -- ---xx flac 0.5164 rre2010-04-24s2t05.flac
12:06.35 128148764 B --- -- ---xx flac 0.5154 rre2010-04-24s2t06.flac
5:24.18 57195980 B --- -- ---xx flac 0.4807 rre2010-04-24s2t07.flac
8:54.40 94291724 B --- -- ---xx flac 0.5374 rre2010-04-24s2t08.flac
9:04.12 95989868 B --- -- ---xx flac 0.5660 rre2010-04-24s2t09.flac
4:18.68 45671180 B --- -- ---xx flac 0.4381 rre2010-04-24s2t10.flac
5:10.49 54799292 B --- -- ---xx flac 0.4511 rre2010-04-24s2t11.flac
8:23.02 88733948 B --- -- ---xx flac 0.5309 rre2010-04-24s2t12.flac
154:59.29 1640412688 B 0.5204 (20 files)