Tea Leaf Green
The 8X10
Baltimore, MD
3/21/07


Source: (balcony/dfc/din) Schoeps MK4v's > KC5 > CMC6 > Lunatec V3 > Tascam HD-P2 (24/48)

Conversion: Wavelab 5 (16/44.1 w/UV22 HR) > CDWave > FLAC Frontend (level 8) > flac
Taped, converted and seeded by Graham Munda (dueling@magpage.com)


Disc 1

01) Georgie P
02) Earth and Sky
03) Faced With Love
04) My Bastard Brother >
05) Piss It Away
06) Jezebel
07) Hanging from a Tree
08) Precious Stone
09) Don't Curse The Night*
10) If It Wasn't for the Money

Disc 2

(set II)
01) Taught to be Proud >
02) The Garden (Part I)
03) The Garden (Part II)
04) Make A Connection
05) Biscuits
06) Morning Sun >
07) Freedom
08) No Blanket

Disc 3

(set II cont.)
01) Miss Mae
02) Vote on Tuesday
03) Sea Monkey's**
(encore)
04) Canít Get High
05) Franz Hanzerbeak
06) Dragonfly


Notes:
* First Time Played
** with Flight of the Sea Monkey


*******************flac fingerprint*********************
tlg2007-03-21d1t01.flac:fed6a38802779e6c80c47b3e28aa083e
tlg2007-03-21d1t02.flac:ae9c1378cf3952b3370cb7667e49b64c
tlg2007-03-21d1t03.flac:60502f0d603ee040da7675ab610aac11
tlg2007-03-21d1t04.flac:99d3bbb61da9d58813983bb581683ecb
tlg2007-03-21d1t05.flac:923a0ecfbeca6e59bf87edde0099d9c2
tlg2007-03-21d1t06.flac:f5be6056a3b952b0a05e4833391241f7
tlg2007-03-21d1t07.flac:a01a749bb32af2ae80a2b32dcf26f987
tlg2007-03-21d1t08.flac:8895ec831c230faf79103b5df752dbed
tlg2007-03-21d1t09.flac:31d9cd486f3828c2e8fef8999cf8f9af
tlg2007-03-21d1t10.flac:5a28073ac494d9265d39e626c0f3340f
tlg2007-03-21d2t01.flac:728c57ceb684503ea6c31c48c117132d
tlg2007-03-21d2t02.flac:e9745cfb3e490e8bcab33ee4fb9977a8
tlg2007-03-21d2t03.flac:2759a7d6ebd13ace171f25a20d3aa143
tlg2007-03-21d2t04.flac:7a0998a5bcaf252db6d675625a4246fc
tlg2007-03-21d2t05.flac:c7a202e9ea8c2554364be1cc560f22e6
tlg2007-03-21d2t06.flac:78556d10088101d7161d3a288f424992
tlg2007-03-21d2t07.flac:868cf31428a822ba92c6e5d0397dd0a3
tlg2007-03-21d2t08.flac:684fd3fc1c2111aed53b3cb216a811e0
tlg2007-03-21d3t01.flac:47efe5a2a50b2e27bc4f64454caceef5
tlg2007-03-21d3t02.flac:dcb7d2bef0a92c5f23a4cec64c08df90
tlg2007-03-21d3t03.flac:6279b4ff4e8bdbd2aa7015a31fc58a6a
tlg2007-03-21d3t04.flac:684f1f623e784ca6c11cd65cfe927853
tlg2007-03-21d3t05.flac:2aafa0d0919b1d65bf9814494fcf62b2
tlg2007-03-21d3t06.flac:2b9285a91ab32cc23c3d02f432daaf83

*******************Shntool Output***********************
length expanded size cdr WAVE problems filename
8:26.18 89300780 --- -- ---xx tlg2007-03-21d1t01.flac
6:23.58 67697660 --- -- ---xx tlg2007-03-21d1t02.flac
5:24.64 57304172 --- -- ---xx tlg2007-03-21d1t03.flac
4:26.21 46971836 --- -- ---xx tlg2007-03-21d1t04.flac
7:01.03 74271500 --- -- ---xx tlg2007-03-21d1t05.flac
8:07.50 86024444 --- -- ---xx tlg2007-03-21d1t06.flac
4:01.18 42554780 --- -- ---xx tlg2007-03-21d1t07.flac
8:07.32 85982108 --- -- ---xx tlg2007-03-21d1t08.flac
5:54.25 62504444 --- -- ---xx tlg2007-03-21d1t09.flac
5:12.27 55100348 --- -- ---xx tlg2007-03-21d1t10.flac
7:23.73 78316940 --- -- ---xx tlg2007-03-21d2t01.flac
1:49.00 19227644 --- -- ---xx tlg2007-03-21d2t02.flac
4:11.33 44354060 --- -- ---xx tlg2007-03-21d2t03.flac
5:13.08 55232060 --- -- ---xx tlg2007-03-21d2t04.flac
7:20.07 77632508 --- -- ---xx tlg2007-03-21d2t05.flac
6:55.17 73246028 --- -- ---xx tlg2007-03-21d2t06.flac
7:55.23 83844140 --- -- ---xx tlg2007-03-21d2t07.flac
4:11.70 44441084 --- -- ---xx tlg2007-03-21d2t08.flac
5:28.30 57929804 --- -- ---xx tlg2007-03-21d3t01.flac
7:03.51 74737196 --- -- ---xx tlg2007-03-21d3t02.flac
11:27.69 121349132 --- -- ---xx tlg2007-03-21d3t03.flac
8:22.38 88642220 --- -- ---xx tlg2007-03-21d3t04.flac
9:40.72 102481388 --- -- ---xx tlg2007-03-21d3t05.flac
5:20.38 56537420 --- -- ---xx tlg2007-03-21d3t06.flac
155:29.20 1569.45 MB (totals for 24 files, 0.5938 overall compression ratio)